Астерикс: Земля Богов в 3Д / Asterix: The Mansions of the Gods 3D (2014) [BDRip (1080p) Anamorph SideBySide / Горизонтальная анаморфная стер - 7 Февраля 2015 - 3D фильмы, клипы, мультфильмы / скачать фильмы в 3d /
Главная » 2015 » Февраль » 7 » Астерикс: Земля Богов в 3Д / Asterix: The Mansions of the Gods 3D (2014) [BDRip (1080p) Anamorph SideBySide / Горизонтальная анаморфная стер
00:16
Астерикс: Земля Богов в 3Д / Asterix: The Mansions of the Gods 3D (2014) [BDRip (1080p) Anamorph SideBySide / Горизонтальная анаморфная стер


image


Полное название: Астерикс: Земля Богов в 3Д / Asterix: The Mansions of the Gods 3D (2014) [BDRip (1080p) Anamorph SideBySide / Горизонтальная анаморфная стереопара]
Тип: Мультфильмы 3D / >> Мультфильмы 3D Стереопары <<

Название: Астерикс: Земля Богов в 3Д
Оригинальное название: Astérix: Le domaine des dieux 3D
Год выхода: 2014
Жанр: мультфильм, приключения, фэнтези, комедия
Режиссер: Луис Клиши
В ролях: Роже Карель, Лоран Дойч, Лоран Лафитт, Александр Астье, Ален Шаба, Эли Семун, Жеральдин Накаш, Артюс де Пенгерн, Лионель Астье, Франсуа Морель

О фильме: Где-то в Бретани стоит деревня, населяющие которую непокорные галлы никак не хотят склонить головы пред знамёнами могущественного Рима. И тогда римский император Цезарь, считающий, что если галлы не идут в Рим, Рим должен прийти к галлам, решается на хитрость- он строит вблизи галльской деревни элитный жилой комплекс «Земля богов», в корне меняющий веками сложившиеся здесь устои. Но свободолюбивых галлов этим не возьмёшь…

Рецензия
Задумывались ли французские художник Альбер Удерзо и писатель Рене Госсини, опубликовавшие в далёком 1959 году в журнале «Пилот» комикс о похождениях бравых галлов Астерикса и Обеликса в сопровождении преданного пёсика Идеяфикса, что их забавные герои понравятся всем, без исключения, зрителям, от мала до велика, от Канады до Австралии и Новой Зеландии, от Индонезии до ЮАР, от Бразилии до Колумбии… За более чем пятидесятилетнюю историю существования героев, о них было создано более тридцати трёх книг и комиксов, переведённых на более чем сто мировых языков и диалектов, включая мёртвые латынь и древнегреческий. Добравшись за эти годы до большого экрана, Астерикс и Обеликс появились на радость публики в семи полнометражных анимационных и четырёх художественных фильмах. И вот, наконец, спустя более чем пятьдесят лет со времени своего появления, любимые герои доросли до полнометражного 3D-проекта в лице «Астерикс: Земля богов».

Создатели мультфильма Луи Клиши и Александр Астье остаются на сто процентов верны традициям своих предшественников- публика помладше хохочет над уморительными визуальными гэгами, сопровождающие их родители - над многочисленными шутками, основанными на игре слов. Правда порой во время просмотра складывается стойкое ощущение «дежа вю, ведь мультфильм частенько буксует на месте благодаря самоповторам и увязаниям в собственных клише. И то, что деревенский музыкант получит по голове, всякий раз, как попытается запеть, и то, что староста деревни, поднявшись на щит, толкнёт очередную тупую речь известно, как дважды два всем давним поклонникам цикла. Однако не стоит пенять на это авторам - ведь они чётко придерживаются фабулы исходного классического комикса Удерзо и Госсини. Да, кстати, несколько козырей для зрителя ими всё же припасено - Консерваториусу в этой серии всё же придётся продемонстрировать всю мощь своего певческого таланта, а Обеликсу доведётся таки попробовать капельку волшебного зелья. Ну, а уж многочисленные шутки по поводу противостояния провинциальных устоев галлов и новомодных нравов изощренных жителей столицы и нежелания галлов противостоять мирным римлянам, точно не дадут вам заскучать. Единственный минус мультфильма я вижу в желании авторов соответствовать модным тенденциям времени и загнать его в рамки пресловутого 3D. Нет, любимые персонажи им вовсе не обезображены, но в том и суть, что по сравнению с классическими рисованными героями, в персонажах ничего не изменилось. Был ли смысл тратиться на дорогую компьютерную графику, если разницы до и после не ощущается? В общем же и целом «Астерикс и Обеликс» остаются прежними - милым семейным аттракционом, пусть уже и не настолько смешным, как первые мультфильмы.©crazy kinogolik (КиноПоиск)

Страна:
Франция
Студия: Belvision, Canal+ [fr], Grid Animation
Продолжительность: 01:25:34
Перевод: Профессиональный (полное дублирование) |Blu-ray|

i4qwzqkm1f0capk61e42ne1ba.jpg xatg14oujajzlwqrwtrb5n39g.jpg tljnl7n6deysy8t9x5udlhw4i.jpg

rgapnu2y5ea2s65wtmlq6kd16.jpg
hc56lcm1p7se1xerg0m4sze9u.jpg pclkjndiyolaf18y5yl9gr8sk.jpg

MediaInfo
Format                                   : Matroska
Format version                           : Version 2
File size                                : 6.50 GiB
Duration                                 : 1h 25mn
Overall bit rate                         : 10.9 Mbps
Movie name                               : ASTERIX_3D_2014_H-SBS.[torrent3d.ru]
Encoded date                             : UTC 2015-02-06 20:57:49
Writing application                      : mkvmerge v4.0.0 ('The Stars were mine') сборка от Jun  6 2010 16:18:42
Writing library                          : libebml v1.0.0 + libmatroska v1.0.0


Video
ID                                       : 1
Format                                   : AVC
Format/Info                              : Advanced Video Codec
Format profile                           : High@L4.1
Format settings, CABAC                   : Yes
Format settings, ReFrames                : 2 frames
Codec ID                                 : V_MPEG4/ISO/AVC
Duration                                 : 1h 25mn
Bit rate                                 : 10.0 Mbps
Width                                    : 1 920 pixels
Height                                   : 1 080 pixels
Display aspect ratio                     : 16:9
Frame rate mode                          : Constant
Frame rate                               : 23.976 fps
Color space                              : YUV
Chroma subsampling                       : 4:2:0
Bit depth                                : 8 bits
Scan type                                : Progressive
Bits/(Pixel*Frame)                       : 0.202
Stream size                              : 5.99 GiB (92%)
Writing library                          : x264 core
Default                                  : Yes
Forced                                   : No
Color primaries                          : BT.709
Transfer characteristics                 : BT.709
Matrix coefficients                      : BT.709


Audio
ID                                       : 2
Format                                   : AC-3
Format/Info                              : Audio Coding 3
Mode extension                           : CM (complete main)
Format settings, Endianness              : Big
Codec ID                                 : A_AC3
Duration                                 : 1h 25mn
Bit rate mode                            : Constant
Bit rate                                 : 640 Kbps
Channel(s)                               : 6 channels
Channel positions                        : Front: L C R, Side: L R, LFE
Sampling rate                            : 48.0 KHz
Bit depth                                : 16 bits
Compression mode                         : Lossy
Stream size                              : 392 MiB (6%)
Default                                  : Yes
Forced                                   : No

Menu
00:00:00.000                             : en:(01)00:00:00:000
00:09:02.208                             : en:(02)00:09:02:208
00:20:30.187                             : en:(03)00:20:30:187
00:31:00.525                             : en:(04)00:31:00:525
00:44:12.316                             : en:(05)00:44:12:316
00:56:11.201                             : en:(06)00:56:11:201
01:04:48.718                             : en:(07)01:04:48:718
01:17:21.762                             : en:(08)01:17:21:762
01:25:34.587                             : en:(09)01:25:34:587


Размер: 6.50 GB
Данный релиз можно скачать с сайта Всё 3D Рунета - торрент-трекера 3D фильмов, мультфильмов, документальных передач в форматах стереопара, анаглиф, 3D Blu-Ray.


Размер: 6.50 GB
Просмотров: 62 | Добавил: Lyn_Xx | Рейтинг: 0.0/0