Eduardo Armenteros / Musica para una coleccion de artes plasticas 3D (2012) [BDRemux, Half Side-by-Side / Горизонтальная анаморфная стереопа - 9 Марта 2015 - 3D фильмы, клипы, мультфильмы / скачать фильмы в 3d /
Главная » 2015 » Март » 9 » Eduardo Armenteros / Musica para una coleccion de artes plasticas 3D (2012) [BDRemux, Half Side-by-Side / Горизонтальная анаморфная стереопа
16:13
Eduardo Armenteros / Musica para una coleccion de artes plasticas 3D (2012) [BDRemux, Half Side-by-Side / Горизонтальная анаморфная стереопа


image


Полное название: Eduardo Armenteros / Musica para una coleccion de artes plasticas 3D (2012) [BDRemux, Half Side-by-Side / Горизонтальная анаморфная стереопара]
Тип: Разное

Название: Eduardo Armenteros: Música para una colección de artes plásticas
Год выхода: 2012
Жанр: Classical, Chamber
Перевод: Отсутствует, Не требуется - Музыка, Лягз и Скрежет.

Описание: Этот великолепный альбом является составной частью интересного культурного проекта под названием Música para una colección de artes plásticas (Music for a visual arts collection - Музыка для визуализации искусства) и задуман с целью объединить духовное и материальное звучание с изобразительным искусством. Проект объединяет фигуры и произведения композитора Eduardo Armenteros (Мадрид, 1956) и скульптора Venancio Бланко ( Матилла-де-лос-Каньос, Саламанка, 1923). Оба маэстро смогли здесь объединить свои материальные и концептуальные видения искусства.

qjrpjc5p6qbsa1rxtk2qkj42f.jpg c6tvwc6erfgmuc3wu4nbq7min.jpg wrhoxjh575829o7f2rhud3nq5.jpg

4ngc24u9ihrocoiafhpcmgu1y.jpg
mdeg8sn0khtiq2q8gtmotrw9u.jpg 9es53698c7q61xp0dhpbn9n3r.jpg


MediaInfo
Format                                   : Matroska
Format version                           : Version 2
File size                                : 7.00 GiB
Duration                                 : 50mn 42s
Overall bit rate mode                    : Variable
Overall bit rate                         : 19.8 Mbps
Movie name                               : Eduardo Armenteros 3D H-SBS [torrent3d.ru]
Encoded date                             : UTC 2015-03-09 12:45:36
Writing application                      : mkvmerge v4.0.0 ('The Stars were mine') сборка от Jun  6 2010 16:18:42
Writing library                          : libebml v1.0.0 + libmatroska v1.0.0


Video
ID                                       : 1
Format                                   : AVC
Format/Info                              : Advanced Video Codec
Format profile                           : High@L4.1
Format settings, CABAC                   : Yes
Format settings, ReFrames                : 3 frames
Codec ID                                 : V_MPEG4/ISO/AVC
Duration                                 : 50mn 42s
Bit rate mode                            : Variable
Bit rate                                 : 19.2 Mbps
Maximum bit rate                         : 30.0 Mbps
Width                                    : 1 920 pixels
Height                                   : 1 080 pixels
Display aspect ratio                     : 16:9
Frame rate mode                          : Constant
Frame rate                               : 25.000 fps
Standard                                 : PAL
Color space                              : YUV
Chroma subsampling                       : 4:2:0
Bit depth                                : 8 bits
Scan type                                : Interlaced
Scan order                               : Top Field First
Bits/(Pixel*Frame)                       : 0.370
Stream size                              : 6.80 GiB (97%)
Default                                  : No
Forced                                   : No
Color primaries                          : BT.709
Transfer characteristics                 : BT.709
Matrix coefficients                      : BT.709


Audio
ID                                       : 2
Format                                   : AC-3
Format/Info                              : Audio Coding 3
Mode extension                           : CM (complete main)
Format settings, Endianness              : Big
Codec ID                                 : A_AC3
Duration                                 : 50mn 42s
Bit rate mode                            : Constant
Bit rate                                 : 192 Kbps
Channel(s)                               : 2 channels
Channel positions                        : Front: L R
Sampling rate                            : 48.0 KHz
Bit depth                                : 16 bits
Compression mode                         : Lossy
Stream size                              : 69.6 MiB (1%)
Language                                 : Spanish
Default                                  : Yes
Forced                                   : No

Выпущено: Испания | Fundación BBVA
Продолжительность: 00:50:43
Аудио: AC3 / 192 Kbps / 2 ch
Видео: AVC / 25 fps / 19.2 Mbps
За исходник Большое Спасибо HDCLUB

Размер: 7.00 GB
Данный релиз можно скачать с сайта Всё 3D Рунета - торрент-трекера 3D фильмов, мультфильмов, документальных передач в форматах стереопара, анаглиф, 3D Blu-Ray.


Размер: 7.00 GB
Просмотров: 84 | Добавил: Lyn_Xx | Рейтинг: 0.0/0