Молодая кровь / Son of a gun / 3D (2014) [ BDRip, 720p, 60 fps, Half SideBySide / Горизонтальная анаморфная стереопара] >> Скачать торрент - 10 Февраля 2015 - 3D фильмы, клипы, мультфильмы / скачать фильмы в 3d /
Главная » 2015 » Февраль » 10 » Молодая кровь / Son of a gun / 3D (2014) [ BDRip, 720p, 60 fps, Half SideBySide / Горизонтальная анаморфная стереопара] >> Скачать торрент
11:25
Молодая кровь / Son of a gun / 3D (2014) [ BDRip, 720p, 60 fps, Half SideBySide / Горизонтальная анаморфная стереопара] >> Скачать торрент


Полное название: Молодая кровь / Son of a gun / 3D (2014) [ BDRip, 720p, 60 fps, Half SideBySide / Горизонтальная анаморфная стереопара]
Тип: Конвертации 2Д->3D
Название: Молодая кровь
Оригинальное название: Son of a gun
Год выпуска: 2014
Жанр: Боевик, драма, криминал
Выпущено: Австралия, Altitude Film Entertainment, Bridle Path Films, Media House Capital
Режиссер: Джулиус Эйвери

В ролях: Брентон Туэйтес, Эван МакГрегор, Алисия Викандер, Мэттью Нэйбл, Дэймон Херриман, Нэш Эдгертон, Яцек Коман, Джесси МакДжинн, Эдди Бару
О фильме: Джей и красавица Наташа любят друг друга. И всё бы ничего, если бы молодая пара не поучаствовала в ограблении века и не похитила груду золота. Но главная проблема в том, что предводитель их банды — легендарный грабитель Брэндан Линч, не собирается ни с кем делиться добычей. И вовсе не хочет никого отпускать «жить счастливо». Поэтому Джей с Наташей могут либо «умереть в один день», либо придумать собственный хитроумный план со счастливым концом.  

Качество: BDRip[720р]
Видео: MPEG-4 AVC, 6566 Кбит/с, 60 кадр/с
Аудио: Русский АС3, 2 ch, 192 бит/с
Размер: 4,89 Гб
Продолжительность: 01:41:28
Перевод: Любительский двухголосый (Пиратская студия)

Формат 3D: Crop Half SideBySide / Горизонтальная анаморфная стереопара без черных полос
Порядок ракурсов: левый ракурс первый.
Контейнер: Matroska
MediaInfo
Полное имя : D:\Раздача\Молодая кровь.mkv
Формат : Matroska
Версия формата : Version 4 / Version 2
Размер файла : 4,89 Гбайт
Продолжительность : 1 ч. 41 м.
Режим общего битрейта : Переменный
Общий поток : 6895 Кбит/сек
Название фильма : Молодая kровь [hsbs]
Дата кодирования : UTC 2015-02-07
Программа кодирования : mkvmerge v7.5.0 ('Glass Culture') 64bit
Библиотека кодирования : libebml v1.3.1 + libmatroska v1.4.2
Видео
Идентификатор : 1
Формат : AVC Формат/Информация : Advanced Video Codec
Профиль формата : Main@L3.2
Параметр CABAC формата : Да
Параметр ReFrames формата : 2 кадра
Идентификатор кодека : V_MPEG4/ISO/AVC
Продолжительность : 1 ч. 41 м.
Вид битрейта : Переменный
Битрейт : 6566 Кбит/сек
Максимальный битрейт : 7200 Кбит/сек
Ширина : 1280 пикселей
Высота : 720 пикселей
Соотношение сторон : 16:9
Режим частоты кадров : Постоянный
Частота кадров : 60,000 кадров/сек
Частота кадров в оригинале : 59,940 кадров/сек
Цветовое пространство : YUV
Субдискретизация насыщенности : 4:2:0
Битовая глубина : 8 бит
Тип развёртки : Прогрессивная
Бит/(Пиксели*Кадры) : 0.119
Размер потока : 4,65 Гбайт (95%)
Заголовок : Rip by SOLdAt
Язык : Russian
Default : Да
Аудио
Идентификатор : 2
Формат : AC-3
Формат/Информация : Audio Coding 3
Расширение режима : CM (complete main)
Параметр Endianness формата : Big
Идентификатор кодека : A_AC3
Продолжительность : 1 ч. 41 м.
Вид битрейта : Постоянный
Битрейт : 192 Кбит/сек
Каналы : 2 канала
Расположение каналов : Front: L R
Частота : 48,0 КГц
Битовая глубина : 16 бит
Размер потока : 139 Мбайт (3%)
Заголовок : 2 ch, 192 kb/s
Язык : Russian Default : Да


Размер: 4.89 GB
Просмотров: 178 | Добавил: Lyn_Xx | Рейтинг: 0.0/0