Самолеты: Огонь и вода в 3Д / Planes: Fire and Rescue 3D (2014) [BDRip, 1080p] Half OverUnder / Вертикальная анаморфная стереопара >> Скача - 15 Ноября 2014 - 3D фильмы, клипы, мультфильмы / скачать фильмы в 3d /
Главная » 2014 » Ноябрь » 15 » Самолеты: Огонь и вода в 3Д / Planes: Fire and Rescue 3D (2014) [BDRip, 1080p] Half OverUnder / Вертикальная анаморфная стереопара >> Скача
21:16
Самолеты: Огонь и вода в 3Д / Planes: Fire and Rescue 3D (2014) [BDRip, 1080p] Half OverUnder / Вертикальная анаморфная стереопара >> Скача


Самолеты: Огонь и вода / Planes: Fire and Rescue

Год выпуска: 2014
Жанр: Мультфильм, комедия, приключения, семейный, полнометражный

Режиссер: Роберт Ганнавей
Сценарий: Джеффри М. Ховард
Продюсер: Феррелл Баррон, Джон Лассетер
Композитор: Марк Манчина
Монтаж: Дэн Молина
Актеры: Дейн Кук, Эд Харрис, Джули Боуэн, Кертис Армстронг, Джон Майкл Хиггинс, Хэл Холбрук, Уэс Стьюди, Брэд Гэррет, Тери Хэтчер, Стейси Кич

Описание фильма:
Самолетик Дасти — который стал уже легендой воздушных гонок вскоре узнает, что его двигатель сильно повреждён, и он никогда не может больше участвовать в скоростных воздушных гонках. Дасти ищет себе новое занятие и знакомится с мужественной пожарно-спасательной командой, которой руководит ветеран авиации вертолёт по имени Ренждер. Узнав насколько тяжела и опасна работа пожарной авиации Дасти поймёт, что такое настоящий героизм и самоотдача и сам захочет стать спасателем.

Дата мировой премьеры: 15 июля 2014
Дата российской премьеры: 21 августа 2014
Дата выхода DVD/Blu-Ray релиза: 18 ноября 2014

Перевод: Дублированный [Blu-Ray]
Субтитры: Русские (полные + форс.), английские (3D)
Навигация по главам: Есть
Продолжительность: 01:23:38

Качество видео: BDRip (maodaye@CHD3D)
Видеокодек: MPEG-4 AVC/H.264
Битрейт видео: ~12,5 Мбит/сек
Размер кадра: 1920 X 1080
Аудио 1: 48 kHz, AC3 Dolby Digital, 3/2 (L,C,R,l,r) + LFE ch, 640.00 kbps [Русский - Дублированный (Blu-Ray)]
Аудио 2: 48 kHz, DTS, 3/2 (L,C,R,l,r) + LFE ch, 1509.00 kbps [English - Original]

c72e5lhv3s0hp9qyi7xgd5x7c.jpg u1acb8e8zj3aqo40nbomrdun2.jpg 2rvpoxaeycgvgekq7l7ke6ygk.jpg
axoubfmt29o2cd4iyan0qjlnu.jpg qjiwtik84mdf6584jy7msfbsb.jpg 03mn3voe5ycyag57a21jpxw94.jpg

MediaInfo
Общее
Уникальный идентификатор : 235235123232264558893164831793710568229 (0xB0F8A3040B638C99B50F2149D0631325)
Полное имя :\Самолеты.Огонь.и.вода.2014.3D.BDRip.1080p.HOU.mk3d
Формат : Matroska
Версия формата : Version 4 / Version 2
Размер файла : 8,27 Гбайт
Продолжительность : 1 ч. 23 м.
Общий поток : 14,2 Мбит/сек
Название фильма : Самолеты.Огонь.и.вода.2014.3D.BDRip.1080p
Дата кодирования : UTC 2010-02-22 21:41:31
Программа кодирования : mkvmerge v5.8.0 ('No Sleep / Pillow') built on Nov 13 2012 19:43:22
Библиотека кодирования : libebml v1.3.0 + libmatroska v1.4.0
Attachements : _ENCODE_3D_MOVIE.avs / _ENCODE.cmd

Видео
Идентификатор : 1
Формат : AVC
Формат/Информация : Advanced Video Codec
Профиль формата : [url=mailto:High@L4.1]High@L4.1[/url]
MultiView_Count : 2
MultiView_Layout : Top-Bottom (left eye first)
Параметр CABAC формата : Да
Параметр ReFrames формата : 4 кадра
Идентификатор кодека : V_MPEG4/ISO/AVC
Продолжительность : 1 ч. 23 м.
Битрейт : 12,0 Мбит/сек
Ширина : 1920 пикселей
Высота : 1080 пикселей
Соотношение сторон : 16:9
Режим частоты кадров : Постоянный
Частота кадров : 23,976 кадра/сек
Цветовое пространство : YUV
Субдискретизация насыщенности : 4:2:0
Битовая глубина : 8 бит
Тип развёртки : Прогрессивная
Бит/(Пиксели*Кадры) : 0.241
Размер потока : 6,85 Гбайт (83%)
Заголовок : Самолеты.Огонь.и.вода.2014.3D.BDRip.1080p
Библиотека кодирования : x264 core 142 r2389 956c8d8
Настройки программы : cabac=1 / ref=4 / deblock=1:-3:-3 / analyse=0x3:0x113 / me=umh / subme=10 / psy=1 / psy_rd=1.00:0.00 / mixed_ref=1 / me_range=32 / chroma_me=1 / trellis=2 / 8x8dct=1 / cqm=0 / deadzone=21,11 / fast_pskip=0 / chroma_qp_offset=-4 / threads=6 / lookahead_threads=1 / sliced_threads=0 / nr=0 / decimate=0 / interlaced=0 / bluray_compat=0 / constrained_intra=0 / bframes=6 / b_pyramid=2 / b_adapt=2 / b_bias=0 / direct=3 / weightb=1 / open_gop=0 / weightp=2 / keyint=250 / keyint_min=23 / scenecut=40 / intra_refresh=0 / rc=2pass / mbtree=0 / bitrate=12000 / ratetol=1.0 / qcomp=0.80 / qpmin=0 / qpmax=69 / qpstep=4 / cplxblur=20.0 / qblur=0.5 / frame-packing=4 / ip_ratio=1.30 / pb_ratio=1.30 / aq=2:0.90
Язык : English
Default : Да
Forced : Нет

Аудио #1
Идентификатор : 2
Формат : AC-3
Формат/Информация : Audio Coding 3
Расширение режима : CM (complete main)
Параметр Endianness формата : Big
Идентификатор кодека : A_AC3
Продолжительность : 1 ч. 23 м.
Вид битрейта : Постоянный
Битрейт : 640 Кбит/сек
Каналы : 6 каналов
Расположение каналов : Front: L C R, Side: L R, LFE
Частота : 48,0 КГц
Битовая глубина : 16 бит
Метод сжатия : С потерями
Размер потока : 383 Мбайт (5%)
Заголовок : Дубляж
Язык : Russian
Default : Нет
Forced : Нет

Аудио #2
Идентификатор : 3
Формат : DTS
Формат/Информация : Digital Theater Systems
Режим : 16
Параметр Endianness формата : Big
Идентификатор кодека : A_DTS
Продолжительность : 1 ч. 23 м.
Вид битрейта : Постоянный
Битрейт : 1509 Кбит/сек
Каналы : 6 каналов
Расположение каналов : Front: L C R, Side: L R, LFE
Частота : 48,0 КГц
Битовая глубина : 24 бит
Метод сжатия : С потерями
Размер потока : 903 Мбайт (11%)
Заголовок : DTS
Язык : English
Default : Нет
Forced : Нет

Текст #1
Идентификатор : 4
Формат : UTF-8
Идентификатор кодека : S_TEXT/UTF8
Идентификатор кодека/Информация : UTF-8 Plain Text
Язык : Russian
Default : Нет
Forced : Нет

Текст #2
Идентификатор : 5
Формат : UTF-8
Идентификатор кодека : S_TEXT/UTF8
Идентификатор кодека/Информация : UTF-8 Plain Text
Язык : Russian
Default : Нет
Forced : Нет

Текст #3
Идентификатор : 6
Формат : VobSub
Режим смешивания : zlib
Идентификатор кодека : S_VOBSUB
Идентификатор кодека/Информация : The same subtitle format used on DVDs
Заголовок : English (3D PGS)
Язык : English
Default : Нет
Forced : Нет

Меню
00:00:00.000 : :1 - 0:00:00
00:03:27.790 : :2 - 0:03:27
00:07:48.593 : :3 - 0:07:48
00:12:36.005 : :4 - 0:12:36
00:17:38.849 : :5 - 0:17:38
00:22:55.165 : :6 - 0:22:55
00:27:45.288 : :7 - 0:27:45
00:32:37.205 : :8 - 0:32:37
00:35:24.789 : :9 - 0:35:24
00:38:31.017 : :10 - 0:38:31
00:41:38.287 : :11 - 0:41:38
00:47:21.046 : :12 - 0:47:21
00:55:00.714 : :13 - 0:55:00
00:57:29.028 : :14 - 0:57:29
01:00:33.880 : :15 - 1:00:33
01:05:22.710 : :16 - 1:05:22
01:09:07.685 : :17 - 1:09:07
01:13:55.264 : :18 - 1:13:55
01:23:38.263 : :19 - 1:23:38

Размер: 8.27 GB
Просмотров: 101 | Добавил: Lyn_Xx | Рейтинг: 0.0/0