Вызов бездне в 3Д / Deepsea Challenge 3D (2014) [BDRip, 1080p] Half SideBySide / Горизонтальная анаморфная стереопара >> Скачать торрент бе - 24 Октября 2014 - 3D фильмы, клипы, мультфильмы / скачать фильмы в 3d /
Главная » 2014 » Октябрь » 24 » Вызов бездне в 3Д / Deepsea Challenge 3D (2014) [BDRip, 1080p] Half SideBySide / Горизонтальная анаморфная стереопара >> Скачать торрент бе
22:30
Вызов бездне в 3Д / Deepsea Challenge 3D (2014) [BDRip, 1080p] Half SideBySide / Горизонтальная анаморфная стереопара >> Скачать торрент бе
 

 

image


Полное название: Вызов бездне в 3Д / Deepsea Challenge 3D (2014) [BDRip, 1080p] Half SideBySide / Горизонтальная анаморфная стереопара
 
Вызов бездне в 3Д / Deepsea Challenge 3D


Год выхода: 2014
Жанр: документальный

Продолжительность: 01:31:05
Перевод: Отсутствует

Продюсер: Джеймс Кэмерон, Бретт Попплуэлл
Режиссер: Джон Бруно, Рэй Квинт, Эндрю Уайт
В ролях: Джеймс Кэмерон, Френк Лолито, Лачлан Вудс, Пол Генри

Сюжет фильма:
На Земле есть несколько мест, которых не коснулась история развития человечества. В полной темноте и безмолвии они хранаят величайшие тайны Земли. Недоступные, как далекие планеты, они полны научных открытий. Одно из таких мест – Марианская впадина.

Джеймс Кэмерон – самый известный и успешный режиссер в мире, еще и страстный исследователь океанов, ведомый мечтой всей его жизни, быть первым человеком, ныряющим в одиночку на дно неприступной и самой глубокой из всех известных на Земле Марианской впадины.

Вызов бездне – захватывающая история, разворачивающаяся перед нами в 3D, об экспедиции исторического масштаба, которую можно сравнить разве что с первыми человеческими шагами по луне. Вызов бездне загипнотизирует зрителя любого возраста красотой новых форм жизни, трепетом от настоящих открытий. А самое главное, что все это здесь, на их родной планете.

Формат 3D: Half SideBySide / Горизонтальная анаморфная стереопара
Порядок ракурсов: левый ракурс первый
Качество: BDrip
Контейнер: MKV
Видео кодек: x264
Аудио кодек: AC-3
Видео: AVC, High@L4.1, 1920х1080, 23,976 кадра/сек, 9663 Кбит/сек
Аудио: AC3, 6 ch, 48 kHz, 640 kbps, English
Субтитры: English
 
Скриншоты

vgzaih64u65yc0e2sefz9yqyr.jpg tac52op8dpgla6g5ui5yam4gc.jpg 25spmcpo7h4mf82lidlejgysb.jpg
ntngzp9u9n7a4l8aejfbrke4p.jpg n0e7arpoye5wz3av45826caeb.jpg sogl5ul9qmq62eav2zo2lhwi0.jpg

 
 
 
MediaInfo
Общее
Уникальный идентификатор : 215605881756405708344201817203301208537 (0xA2342EB0DA7354068A4980570E34D1D9)
Полное имя : D:\Download\Deepsea Challenge 3D 2014 BDRip 1080p halfSbS [3d-tracker.ru].mkv
Формат : Matroska
Версия формата : Version 2
Размер файла : 6,54 Гбайт
Продолжительность : 1 ч. 31 м.
Общий поток : 10,3 Мбит/сек
Название фильма : 3d-tracker.ru
Дата кодирования : UTC 2014-10-24 14:25:52
Программа кодирования : mkvmerge v4.0.0 ('The Stars were mine') сборка от Jun 6 2010 16:18:42
Библиотека кодирования : libebml v1.0.0 + libmatroska v1.0.0

Видео
Идентификатор : 1
Формат : AVC
Формат/Информация : Advanced Video Codec
Профиль формата : High@L4.1
Параметр CABAC формата : Да
Параметр ReFrames формата : 4 кадра
Идентификатор кодека : V_MPEG4/ISO/AVC
Продолжительность : 1 ч. 31 м.
Битрейт : 9663 Кбит/сек
Ширина : 1920 пикселей
Высота : 1080 пикселей
Соотношение сторон : 16:9
Режим частоты кадров : Постоянный
Частота кадров : 23,976 кадра/сек
Цветовое пространство : YUV
Субдискретизация насыщенности : 4:2:0
Битовая глубина : 8 бит
Тип развёртки : Прогрессивная
Бит/(Пиксели*Кадры) : 0.194
Размер потока : 6,00 Гбайт (92%)
Заголовок : 3d-tracker.ru
Библиотека кодирования : x264 core 142 r2479 dd79a61
Настройки программы : cabac=1 / ref=4 / deblock=1:0:0 / analyse=0x3:0x133 / me=umh / subme=7 / psy=1 / psy_rd=1.00:0.00 / mixed_ref=1 / me_range=16 / chroma_me=1 / trellis=1 / 8x8dct=1 / cqm=0 / deadzone=21,11 / fast_pskip=0 / chroma_qp_offset=-2 / threads=18 / lookahead_threads=3 / sliced_threads=0 / nr=0 / decimate=1 / interlaced=0 / bluray_compat=0 / constrained_intra=0 / bframes=3 / b_pyramid=2 / b_adapt=1 / b_bias=0 / direct=1 / weightb=1 / open_gop=0 / weightp=2 / keyint=250 / keyint_min=23 / scenecut=40 / intra_refresh=0 / rc_lookahead=40 / rc=2pass / mbtree=1 / bitrate=9663 / ratetol=1.0 / qcomp=0.60 / qpmin=0 / qpmax=69 / qpstep=4 / cplxblur=20.0 / qblur=0.5 / ip_ratio=1.40 / aq=1:1.00
Язык : English
Default : Нет
Forced : Нет

Аудио
Идентификатор : 2
Формат : AC-3
Формат/Информация : Audio Coding 3
Расширение режима : CM (complete main)
Параметр Endianness формата : Big
Идентификатор кодека : A_AC3
Продолжительность : 1 ч. 31 м.
Вид битрейта : Постоянный
Битрейт : 640 Кбит/сек
Каналы : 6 каналов
Расположение каналов : Front: L C R, Side: L R, LFE
Частота : 48,0 КГц
Битовая глубина : 16 бит
Метод сжатия : С потерями
Размер потока : 417 Мбайт (6%)
Заголовок : 3d-tracker.ru
Язык : English
Default : Нет
Forced : Нет

Текст
Идентификатор : 3
Формат : UTF-8
Идентификатор кодека : S_TEXT/UTF8
Идентификатор кодека/Информация : UTF-8 Plain Text
Заголовок : 3d-tracker.ru
Язык : English
Default : Нет
Forced : Нет

Меню
00:00:00.000 : en:00:00:00.000
00:07:06.968 : en:00:07:06.968
00:14:26.324 : en:00:14:26.324
00:20:56.589 : en:00:20:56.589
00:28:06.977 : en:00:28:06.977
00:35:22.329 : en:00:35:22.329
00:42:03.438 : en:00:42:03.438
00:49:38.976 : en:00:49:38.976
00:56:56.997 : en:00:56:56.997
01:04:44.422 : en:01:04:44.422
01:13:38.205 : en:01:13:38.205
01:24:04.414 : en:01:24:04.414
 
 
 

Размер: 6.54 GB
Просмотров: 106 | Добавил: Lyn_Xx | Рейтинг: 0.0/0